Details for this torrent 

Last Night (1998)
Type:
Video > Movies
Files:
1
Size:
682.97 MiB (716150784 Bytes)
Info:
IMDB
Spoken language(s):
English
Texted language(s):
English
Uploaded:
2007-05-19 20:01:49 GMT
By:
benmcq
Seeders:
32
Leechers:
1
Comments
10  

Info Hash:
 
AD7AE6EE7230A06EE1793FAE49C0F83D645CA0C8




Last Night is a 1998 Canadian film by Don McKellar.  It tells the story of how a variety of characters spending their remaining evening on Earth.		

Comments

this is one hella movie
Thanks, man!
This movie is beautiful. Emotionally moving and stuff - and coming from a blackheart like me this is saying a lot.
Thanks Tod!
Thank you.
F:\azad\Holy Molly\Movies\Last Night\Last Night.avi
General
Complete name : F:\azad\Holy Molly\Movies\Last Night\Last Night.avi
Format : AVI
Format/Info : Audio Video Interleave
File size : 683 MiB
Duration : 1h 34mn
Overall bit rate : 1 014 Kbps
Writing library : VirtualDub build 13130/release
Video #0
ID : 0
Format : MPEG-4 Visual
Format settings, BVOP : Yes
Format settings, QPel : No
Format settings, GMC : No warppoints
Format settings, Matrix : Default (H.263)
Muxing mode : Packed bitstream
Codec ID : DX50
Codec ID/Hint : DivX 5
Duration : 1h 34mn
Bit rate : 874 Kbps
Width : 640 pixels
Height : 480 pixels
Display aspect ratio : 4:3
Frame rate : 29.970 fps
Resolution : 24 bits
Scan type : Progressive
Bits/(Pixel*Frame) : 0.095
Stream size : 589 MiB (86%)
Writing library : DivX 5.1.1 (Maupiti) (UTC 2003-11-19)
Audio #1
ID : 1
Format : MPEG Audio
Format version : Version 1
Format profile : Layer 3
Codec ID : 55
Codec ID/Hint : MP3
Duration : 1h 34mn
Bit rate mode : Constant
Bit rate : 128 Kbps
Channel(s) : 2 channels
Sampling rate : 44.1 KHz
Resolution : 16 bits
Video delay : 11ms
Stream size : 86.2 MiB (13%)
Alignment : Split accross interleaves
Interleave, duration : 33 ms (1.00 video frame)
Interleave, preload duration : 500 ms
Oh my oh my! Did not expect this on here. Promptly downloading. Superb movie.
Thanks for the movie
Weird and beautiful. Makes you wonder, how would YOU spend it?
Thanks.
Too bad this movie had such a limited release when it came out, it's hauntingly sad, well written and acted. Blacklisted by the guild because of non member actors. BS.