Details for this torrent 

Alex Cross 2012 720p BDRip XViD AC3-26k
Type:
Video > HD - Movies
Files:
11
Size:
2.77 GiB (2968960993 Bytes)
Info:
IMDB
Spoken language(s):
English
Uploaded:
2012-12-10 21:03:50 GMT
By:
froggie100 VIP
Seeders:
0
Leechers:
0
Comments
1  

Info Hash:
 
2C736B5F578A2C5BE1D52E7926D6A16B61B0CD09




[img]http://i.imgur.com/Z4kbv.jpg[/img]

[code]

Alex.Cross.2012.720p.BDRip.XViD.AC3-26k
 
http://www.imdb.com/title/tt1712170/

Plot:

A homicide detective is pushed to the brink of his moral and physical limits as he tangles with a 
ferociously skilled serial killer who specializes in torture and pain.

Sources - VIDEO: ALEX_CROSS_BD-BB ..... thanks .... :P
          AUDIO: ALEX_CROSS_BD-BB ..... thanks .... :P

Format                                   : AVI
Format/Info                              : Audio Video Interleave
Format profile                           : OpenDML
File size                                : 2.76 GiB
Duration                                 : 1h 41mn
Overall bit rate                         : 3 900 Kbps
Writing library                          : VirtualDub build 32839/release

Video
ID                                       : 0
Format                                   : MPEG-4 Visual
Format profile                           : Advanced Simple@L5
Format settings, BVOP                    : 2
Format settings, QPel                    : No
Format settings, GMC                     : No warppoints
Format settings, Matrix                  : Default (H.263)
Codec ID                                 : XVID
Codec ID/Hint                            : XviD
Duration                                 : 1h 41mn
Bit rate                                 : 3 249 Kbps
Width                                    : 1 280 pixels
Height                                   : 720 pixels
Display aspect ratio                     : 16:9
Frame rate                               : 24.000 fps
Color space                              : YUV
Chroma subsampling                       : 4:2:0
Bit depth                                : 8 bits
Scan type                                : Progressive
Compression mode                         : Lossy
Bits/(Pixel*Frame)                       : 0.147
Stream size                              : 2.30 GiB (83%)
Writing library                          : XviD 1.2.1 (UTC 2008-12-04)

Audio
ID                                       : 1
Format                                   : AC-3
Format/Info                              : Audio Coding 3
Mode extension                           : CM (complete main)
Format settings, Endianness              : Big
Codec ID                                 : 2000
Duration                                 : 1h 41mn
Bit rate mode                            : Constant
Bit rate                                 : 640 Kbps
Channel(s)                               : 6 channels
Channel positions                        : Front: L C R, Side: L R, LFE
Sampling rate                            : 48.0 KHz
Bit depth                                : 16 bits
Compression mode                         : Lossy
Stream size                              : 464 MiB (16%)
Alignment                                : Split accross interleaves
Interleave, duration                     : 42 ms (1.00 video frame)
Interleave, preload duration             : 500 ms

Notes -

Took the BD made a script to make magic happen and this is the outcome.. enjoy

[/code]

Screens:

[img]http://i.imgur.com/yf4Ro.png[/img]
[img]http://i.imgur.com/5gHSn.jpg[/img]
[img]http://i.imgur.com/M3sa6.jpg[/img]
[img]http://i.imgur.com/IjHK6.png[/img]
[img]http://i.imgur.com/6RsEK.jpg[/img]

Greetz:
XtremeEncode|CM8|RX|VISION|HDSCENE|xTriLL|ADTRG|CRYS|REMIXHD|HS|Tommiecook
BIDA|RX|REFILL|INSPiRAL|AXED|HOPE|Anonymous|GooN|NOIR|Blackjesus|Gabroo Punjab Deh
|UNiQUE|RESiSTANCE|HS|LEGION

To all the people who have helped me, you know who you are

Anything to offer email us @: 26k@hushmail.me 		

Comments

in russian not english! my bad...