Details for this torrent 

Stolichani v poveche - Season 5 - Episode 2
Type:
Video > TV shows
Files:
1
Size:
879.33 MiB (922047142 Bytes)
Spoken language(s):
English
Texted language(s):
English
Uploaded:
2013-03-14 08:00:16 GMT
By:
freeplay666
Seeders:
4
Leechers:
0
Comments
1  

Info Hash:
 
0087CF3B72FA6FBF41A22E145F3D01ABF3421A59




  Stolichani v poveche.S05E02.WEB.Rip.MP4.MC.FREEPLAY.mp4
  
 General
     
 Complete name : Stolichani v poveche.S05E02.WEB.Rip.MP4.MC.FREEPLAY.mp4
      Format : MPEG-4
      Format profile : Base Media / Version 2
      Codec ID : mp42
      File size : 879 MiB
      Duration : 46mn 43s
      Overall bit rate : 2 631 Kbps
      Encoded date : UTC 2013-03-14 06:30:50
      Tagged date : UTC 2013-03-14 06:30:50
   Video #1
      ID : 1
      Format : MPEG-4 Visual
      Format profile : AdvancedSimple@L5
      Format settings, BVOP : No
      Format settings, QPel : No
      Format settings, GMC : No warppoints
      Format settings, Matrix : Default (H.263)
      Codec ID : 20
      Duration : 46mn 43s
      Bit rate mode : Variable
      Bit rate : 2 502 Kbps
      Maximum bit rate : 25.8 Mbps
      Width : 1 280 pixels
      Height : 720 pixels
      Display aspect ratio : 16:9
      Frame rate mode : Constant
      Frame rate : 30.000 fps
      Resolution : 24 bits
      Colorimetry : 4:2:0
      Scan type : Progressive
      Bits/(Pixel*Frame) : 0.090
      Stream size : 836 MiB (95%)
      Language : English
      Encoded date : UTC 2013-03-14 06:30:50
      Tagged date : UTC 2013-03-14 06:30:50
   Audio #2
      ID : 2
      Format : AAC
      Format/Info : Advanced Audio Codec
      Format version : Version 4
      Format profile : LC
      Format settings, SBR : No
      Codec ID : 40
      Duration : 46mn 43s
      Bit rate mode : Variable
      Bit rate : 126 Kbps
      Maximum bit rate : 337 Kbps
      Channel(s) : 2 channels
      Channel positions : L R
      Sampling rate : 44.1 KHz
      Resolution : 16 bits
      Stream size : 42.0 MiB (5%)
      Language : English
      Encoded date : UTC 2013-03-14 06:30:50
      Tagged date : UTC 2013-03-14 06:30:50		

Comments

Благодаря :)